#TITLE:来过倒;
#SUBTITLE:;
#ARTIST:Super Junior;
#TITLETRANSLIT:;
#SUBTITLETRANSLIT:;
#ARTISTTRANSLIT:;
#CREDIT:;
#BANNER:u-logo.jpg;
#BACKGROUND:u.jpg;
#LYRICSPATH:;
#CDTITLE:Lan.png;
#MUSIC:u.mp3;
#OFFSET:-0.020;
#SAMPLESTART:43.165;
#SAMPLELENGTH:12.000;
#SELECTABLE:YES;
#BPMS:0.000=139.000;
#STOPS:;
#BGCHANGES:;
// cache tags:
#FIRSTBEAT:5.000;
#LASTBEAT:244.000;
#SONGFILENAME:Songs/SDO 2/u/u.sm;
#HASMUSIC:1;
#HASBANNER:1;
#MUSICLENGTH:107.066;
// end cache tags

//---------------dance-single - sky----------------
#NOTES:
     dance-single:
     sky:
     Hard:
     10:
     0.987,1.000,1.000,0.028,0.411,521.000,214.000,3.000,0.000,2.000:

0000
0000
0000
0000
,
0000
0000
0100
0100
0100
0100
0100
0100
,
0100
0000
0100
0000
0011
0000
0101
0000
1001
0000
0000
0010
0101
0000
1010
0000
,
0101
0000
0000
0000
1001
0000
1010
0000
1100
0000
0000
0010
0101
0000
1100
0000
,
0011
0000
0000
0000
0101
0000
1010
0000
0011
0000
0000
1000
0101
0000
1010
0000
,
0101
0000
0000
0000
1010
0100
0011
1000
0110
0001
0100
0010
1101
0010
1000
0100
,
1010
0100
1000
0010
0101
0000
1010
0000
0110
0000
0000
0010
0101
0000
1100
0000
,
0110
0000
0000
0000
1100
0000
1001
0000
0110
0000
0000
0010
1100
0000
0011
0000
,
1010
0000
0000
0000
0101
0000
1010
0000
0110
0000
0000
0001
0110
0000
1001
0000
,
0110
0000
0000
0000
0101
0000
1010
0000
0110
0000
0000
0001
0110
0000
0110
0000
,
1001
0000
0101
0010
1100
0001
0110
1000
,
0011
0100
1001
0010
1100
0010
0001
0100
,
1000
0001
0010
0100
1010
0001
0110
1000
,
0110
0001
1100
0010
0101
0010
1000
0100
,
0010
0001
0110
1000
0011
0100
1010
0001
,
0110
0000
1000
0000
0101
0000
0010
0000
1100
0000
0001
0000
1000
0000
0100
0100
,
0011
0000
1100
0010
0101
1000
0110
0001
,
1010
0000
0100
0000
0010
0001
1000
0010
0100
0010
0001
0000
1000
0000
0010
0000
,
0100
0010
1001
0100
0011
0100
1010
0001
,
0110
1000
0100
0010
0101
0010
1001
0010
,
1100
0010
0101
0010
1001
0010
0101
0010
,
1100
0000
0010
0000
0100
0000
0010
0000
0001
0000
1000
0000
0100
0000
0001
0010
,
0100
1000
0010
0001
0100
0000
1000
0000
0011
0000
0100
0000
1010
0000
0001
0000
,
0110
0000
0001
0000
1100
0000
0010
0000
0101
0000
0010
0000
1000
0100
0010
0001
,
0100
1000
0010
0001
0100
0000
1000
0000
0110
0000
0001
0000
1010
0000
0001
0000
,
1100
0000
0001
0000
0100
1000
0010
0001
0100
0010
1000
0000
0001
0000
0100
0000
,
0010
0000
0100
0000
1010
0000
0101
0000
0110
0000
0000
0100
1001
0000
0110
0000
,
1010
0000
0000
0000
1100
0000
0011
0000
0101
0000
0000
0010
1001
0000
0110
0000
,
0101
0000
0000
0000
1100
0000
0101
0000
0110
0000
0000
0010
1100
0000
0011
0000
,
0101
0000
0000
0000
1100
0000
0110
0000
1001
0000
0000
0100
1100
0000
1100
0000
,
1100
0010
0101
0010
1100
0010
1001
0010
,
1100
0000
0001
0000
0110
0000
1000
0000
0101
0000
0010
1000
0001
0000
0010
0000
,
0100
0001
1010
0100
0011
1000
0110
1000
,
0101
0000
0010
0000
1100
0000
0001
0000
0110
0000
0001
1000
0010
0000
0100
0000
,
1000
0010
0101
0010
1100
0001
0110
1000
,
0011
0000
0100
0000
1010
0000
0001
0000
0110
0000
1000
0000
0100
0001
0000
0010
,
1000
0100
0001
0010
1000
0000
0100
0000
1010
0000
0001
0000
1100
0000
0010
0000
,
0101
0000
1000
0000
0001
0100
0010
1000
0010
0001
0100
0000
1000
0000
0010
0000
,
0100
1001
0010
0100
1001
0010
1000
0001
,
0110
1000
0100
0001
0110
1000
0001
0010
,
1100
0001
1000
0010
0101
0010
1000
0100
,
1001
0000
0100
0000
0011
0100
1010
0100
1001
0010
0101
0010
1001
0000
0010
0100
,
1001
0100
0010
0100
1010
0000
0001
0000
0110
0000
1000
0000
0010
0000
0001
0000
,
1100
0010
0100
1000
0101
0010
1000
0010
,
1001
0100
0010
0100
0011
1000
0100
0010
,
1100
0000
0010
0000
0101
0000
0000
0101
0000
0000
0101
0000
0000
0000
0010
0000
,
0100
0000
0000
0000
1010
0100
0010
0001
1010
0100
1000
0100
0011
0100
0010
0001
,
1010
0100
0010
0100
0010
0001
0010
0001
0010
0100
0010
0001
0010
0100
1000
0100
,
1000
0100
0010
0001
1100
0000
0110
0000
0011
0000
0000
0000
1100
0000
1001
0000
,
0110
0000
0000
0000
1100
0000
0011
0000
1010
0000
0000
0100
0011
0000
1100
0000
,
0110
0000
0110
1001
0110
0000
0101
1010
,
0110
0000
0000
0000
0110
0000
1100
0000
1001
0000
0000
0010
0101
0000
1010
0000
,
0100
0001
1010
0001
0100
1000
0011
0100
,
1000
0000
0001
0000
0110
0000
1000
0000
0010
0000
0100
0000
0001
0000
0010
1000
,
0100
0010
0001
0010
1100
0000
0010
0000
0001
0000
0100
0000
1010
0000
0001
0000
,
0100
0000
0001
0000
1100
0010
0001
0100
1000
0000
0001
0000
0110
0000
1000
0000
,
0100
0000
0010
0000
1100
0000
0011
0000
0101
0000
0000
0010
1001
0000
0110
0000
,
1001
0000
0000
0000
1100
0000
0011
0000
0101
0000
0000
0010
1001
0000
0110
0000
,
1001
0000
0000
0000
1010
0001
0110
1000
0101
0010
0001
0010
1100
0010
0101
1000
,
0101
0010
0100
0010
0101
1000
0110
0001
1100
0010
0100
0010
1001
0100
0011
0000
,
2022
0000
0000
0000
,
3033
0000
0000
0000
;
